(navigation image)
Home Audio Books & Poetry | Community Audio | Computers & Technology | Grateful Dead | Live Music Archive | Music, Arts & Culture | Netlabels | News & Public Affairs | Non-English Audio | Podcasts | Radio Programs | Spirituality & Religion | The Shady Trees
Search: Advanced Search
Anonymous User (login or join us)
Upload

Listen to audio

item image
Run time: 147:56

Play / Download (help[help])

Whole directory

Lossless zip


All Files: HTTPS Torrent (2/0)

Resources

Bookmark

RatdogRatdog Live at Allgood Festival on 2007-07-13 (July 13, 2007)


Collection: Ratdog
Band/Artist: Ratdog
Date: July 13, 2007 (check for other copies)
Venue: Allgood Festival
Location: Masontown WV

Source: schoeps mk4v (ORTF, OTS) > vms02ib > busman t-mod edirol r4 (24/48)
Lineage: soundforge 8.0 (+4dB, tracking, fades) > flac 1.2.0a
Taped by: Peter W. King
Transferred by: Peter W. King


Description

Ratdog
July 13, 2007
Allgood Festival - Allgood Stage
Marvin's Mountaintop grounds
Masontown WV

*** THIS IS A 24-BIT FILESET NOT INTENDED FOR AUDIO CD ***

SOURCE: schoeps mk4v (ORTF, OTS) > vms02ib > busman t-mod edirol r4 (24/48)
PROCESSING: soundforge 8.0 (+4dB, tracking, fades) > flac 1.2.0a

01 Intro/Jam ^ >
02 Casey Jones
03 I Need A Miracle
04 Dark Star >
05 Hell In A Bucket
06 Lazy River Road
07 Me And My Uncle
08 Tennessee Jed
09 Uncle John's Band * >
10 Stuff * @ >
11 Come Together >
12 Dark Star >
13 Throwing Stones
14 pre-encore crowd
Encore
15 encore intro ("Fuck it, it's battle of the bands")
16 Touch Of Grey

* With Keller williams
@ Without Bobby

Notes

length expanded size cdr WAVE problems fmt ratio filename
3:32.200 61113644 B cxx -- ---xx flac 0.6437 ratdog2007-07-13_mk4v_t01.flac
7:32.900 130435244 B cxx -- ---xx flac 0.6386 ratdog2007-07-13_mk4v_t02.flac
8:24.900 145411244 B cxx -- ---xx flac 0.6453 ratdog2007-07-13_mk4v_t03.flac
15:07.900 261475244 B cxx -- ---xx flac 0.6345 ratdog2007-07-13_mk4v_t04.flac
13:08.200 227001644 B cxx -- ---xx flac 0.6476 ratdog2007-07-13_mk4v_t05.flac
10:14.300 176918444 B cxx -- ---xx flac 0.6161 ratdog2007-07-13_mk4v_t06.flac
5:57.100 102844844 B cxx -- ---xx flac 0.6281 ratdog2007-07-13_mk4v_t07.flac
10:31.100 181756844 B cxx -- ---xx flac 0.6324 ratdog2007-07-13_mk4v_t08.flac
21:24.200 369849644 B cxx -- ---xx flac 0.6415 ratdog2007-07-13_mk4v_t09.flac
10:26.900 180547244 B cxx -- ---xx flac 0.6356 ratdog2007-07-13_mk4v_t10.flac
8:16.700 143049644 B cxx -- ---xx flac 0.6463 ratdog2007-07-13_mk4v_t11.flac
10:07.300 174902444 B cxx -- ---xx flac 0.6316 ratdog2007-07-13_mk4v_t12.flac
12:20.300 213206444 B cxx -- ---xx flac 0.6670 ratdog2007-07-13_mk4v_t13.flac
1:06.600 19180844 B cxx -- ---xx flac 0.5922 ratdog2007-07-13_mk4v_t14.flac
0:12.600 3628844 B cxx -- ---xx flac 0.6176 ratdog2007-07-13_mk4v_t15.flac
9:33.184 165077036 B cxx -- ---xx flac 0.6949 ratdog2007-07-13_mk4v_t16.flac
147:56.384 2556399296 B 0.6429 (16 files)

Individual Files

Audio Files 24bit Flac
Intro/Jam ^ > 37.5 MB
Casey Jones 79.4 MB
I Need A Miracle 89.5 MB
Dark Star > 158.2 MB
Hell In A Bucket 140.2 MB
Lazy River Road 104.0 MB
Me And My Uncle 61.6 MB
Tennessee Jed 109.6 MB
Uncle John's Band * > 226.3 MB
Stuff * @ > 109.4 MB
Come Together > 88.2 MB
Dark Star > 105.3 MB
Throwing Stones 135.6 MB
pre-encore crowd 10.8 MB
encore intro ("Fuck it, it's battle of the bands") 2.1 MB
Touch Of Grey 109.4 MB
Information FormatSize
ratdog2007-07-13.mk4v.flac24_files.xml Metadata [file]
ratdog2007-07-13.mk4v.flac24_meta.xml Metadata 4.4 KB
ratdog2007-07-13.mk4v.flac24_reviews.xml Metadata 192.0 B
ratdog2007-07-13_mk4v.flac24.md5 Checksums 1.0 KB
Other Files Archive BitTorrent Unknown Text
ratdog2007-07-13.mk4v.flac24_archive.torrent 35.4 KB
ratdog2007-07-13.mk4v.flac24_rules.conf 7.0 B
ratdog2007-07-13_mk4v.txt 2.3 KB

Be the first to write a review
Downloaded 97 times
Reviews